#TITLE:Overworld;
#SUBTITLE:The Legend of Zelda;
#ARTIST:近藤浩治;
#TITLETRANSLIT:;
#SUBTITLETRANSLIT:;
#ARTISTTRANSLIT:Koji Kondo;
#CREDIT:;
#BANNER:Overworld.jpg;
#BACKGROUND:Overworld-bg.jpg;
#LYRICSPATH:;
#CDTITLE:!TheEvilHoboOriginal.png;
#MUSIC:Overworld.mp3;
#OFFSET:-0.200;
#SAMPLESTART:6.797;
#SAMPLELENGTH:12.000;
#SELECTABLE:YES;
#BPMS:0.000=145.300;
#STOPS:;
#BGCHANGES:;
// cache tags:
#FIRSTBEAT:0.000;
#LASTBEAT:176.000;
#SONGFILENAME:Songs/Music V.I.P ^_^/Overworld (The Evil Hobo)/Overworld.sm;
#HASMUSIC:1;
#HASBANNER:1;
#MUSICLENGTH:80.875;
// end cache tags

//---------------dance-single - ----------------
#NOTES:
     dance-single:
     :
     Hard:
     12:
     0.980,0.925,1.000,0.284,1.000,413.000,119.000,23.000,0.000,5.000:

1200
0000
0000
1300
1000
1000
1000
0000
0100
0100
0100
0100
,
0100
0000
0010
0200
0001
0001
0301
0000
1000
1000
1000
1000
,
1000
0000
0100
2000
0001
0001
3001
0000
0010
0010
0010
0010
,
0010
0000
0010
0010
0010
0000
0010
0010
0010
0000
0010
0010
0010
0010
0010
0010
,
0011
0000
0000
0000
0000
0000
0000
0000
0000
0000
0000
0000
0011
0000
0000
0000
0100
0000
0000
0000
0010
0000
0000
0000
1100
0000
0000
0000
0000
0000
0000
0000
0000
1000
0000
0000
1000
0000
0000
0100
0000
0000
0010
0000
0000
0001
0000
0000
,
0020
0000
0000
0000
0000
0000
0000
0000
0000
0100
0000
0000
0130
0000
0000
1000
0000
0000
0100
0000
0000
0010
0000
0000
0001
0000
0000
0000
0000
0000
0001
0000
0000
0000
0000
0000
0001
0000
0000
0000
0010
0000
0000
0000
0100
0000
0000
0000
,
1000
0000
0000
0000
0000
0000
0000
0000
0000
1000
0000
0000
0010
0000
0000
0100
0000
0000
0001
0000
0000
0010
0000
0000
0100
0000
0000
0000
1100
0000
0000
0000
1100
0000
0000
0000
1100
0000
0000
0000
1010
0000
0000
0000
0110
0000
0000
0000
,
0101
0000
0101
0011
0100
0010
1100
0000
0100
0101
0010
0100
,
1001
0000
0010
0100
1000
0000
1000
0100
0020
0000
0000
0000
0131
0000
0110
0000
,
1010
0000
1000
0100
0010
0000
0010
0100
2000
0000
0000
0000
3110
0000
0011
0000
,
1001
0000
0010
0100
1000
0000
1000
0100
0020
0000
0000
0000
1031
0000
0000
0000
,
0110
0000
0100
0100
0100
0000
0100
0100
0100
0000
0100
0100
0100
0100
0100
0100
,
0110
0000
0000
0000
0000
0000
0000
0000
0010
0000
0000
0000
0101
0000
0000
0000
0010
0000
0000
0000
0100
0000
0000
0000
1010
0000
0000
0000
0000
0000
0000
0000
0000
0100
0000
0000
0100
0000
0000
0010
0000
0000
0001
0000
0000
0010
0000
0000
,
0200
0000
0000
0000
0000
0000
0000
0000
0000
0010
0000
0000
0310
0000
0000
0100
0000
0000
1000
0000
0000
0100
0000
0000
0010
0000
0000
0000
0000
0000
0010
0000
0000
0000
0000
0000
0010
0000
0000
0000
0100
0000
0000
0000
1000
0000
0000
0000
,
0100
0000
0000
0010
0010
0100
0010
0000
0010
0012
0000
0000
,
0013
0000
0000
0120
0100
0100
0130
0000
0000
1100
0000
0000
,
1100
0110
0011
0110
1100
0110
0011
0000
0000
1001
0000
0000
,
1010
0000
0000
2100
0100
0100
3100
0000
0000
0101
0000
0000
,
0101
0110
1010
0110
0101
0110
1010
0000
0000
1001
0000
0000
,
0101
0000
0000
0012
0010
0010
0013
0000
0000
0110
0000
0000
,
1010
0000
0000
0010
0010
0001
0010
0000
0000
1010
0100
0001
,
1100
0000
0000
0120
0100
1000
0130
0000
0000
0101
0010
1000
,
0110
0000
0010
0100
1000
0000
1000
0100
0020
0000
0030
0010
0011
0000
0101
0000
,
1001
0000
0001
0001
0001
0000
0001
0001
0001
0000
0001
0001
0001
0001
0001
0001
,
1001
0000
0000
0000
0000
0000
0000
0000
0010
0000
0000
0000
1100
0000
0000
0000
0010
0000
0000
0000
0100
0000
0000
0000
0011
0000
0000
0000
0000
0000
0000
0000
0000
0001
0000
0000
0001
0000
0000
0010
0000
0000
0100
0000
0000
1000
0000
0000
,
0200
0000
0000
0000
0000
0000
0000
0000
0000
0010
0000
0000
0310
0000
0000
0001
0000
0000
0010
0000
0000
0100
0000
0000
1000
0000
0000
0000
0000
0000
1000
0000
0000
0000
0000
0000
1000
0000
0000
0000
0001
0000
0000
0000
0100
0000
0000
0000
,
0020
0000
0000
0000
0000
0000
0000
0000
0000
0100
0000
0000
0130
0000
0000
0010
0000
0000
0001
0000
0000
0010
0000
0000
0100
0000
0000
0000
0110
0000
0000
0000
0110
0000
0000
0000
0110
0000
0000
0000
0101
0000
0000
0000
0110
0000
0000
0000
,
1010
0000
1001
0101
0001
0010
0001
0000
0001
0110
1000
0001
,
1010
0000
0100
0010
0001
0000
0001
0010
0200
0000
0000
0000
1310
0000
0110
0000
,
0011
0000
0001
0010
0100
0000
0100
0010
0002
0000
0000
0000
0113
0000
1100
0000
,
1001
0000
0000
0000
0000
0000
1000
0000
0000
0100
0000
0000
0010
0000
0000
0000
0000
0000
0010
0000
0000
0100
0000
0000
1000
0000
0000
0000
0000
0000
0000
0000
1000
0000
0000
0000
1100
0000
0000
0000
0000
0000
0100
0000
0000
0000
0000
0000
,
1001
0000
1000
1000
1000
0000
1000
1000
1000
0000
1000
1000
1000
1000
1000
1000
,
1010
0000
0000
0000
0000
0000
0000
0000
0100
0000
0000
0000
1001
0000
0000
0000
0010
0000
0000
0000
0100
0000
0000
0000
1001
0000
0000
0000
0000
0000
0000
0000
0000
0010
0000
0000
0010
0000
0000
0100
0000
0000
0010
0000
0000
0001
0000
0000
,
0020
0000
0000
0000
0000
0000
0000
0000
0000
0100
0000
0000
0130
0000
0000
1000
0000
0000
0100
0000
0000
0010
0000
0000
0100
0000
0000
0000
0000
0000
0100
0000
0000
0000
0000
0000
0100
0000
0000
0000
0010
0000
0000
0000
0001
0000
0000
0000
,
1000
0000
0000
1000
1000
0100
1000
0000
0000
1001
0000
0000
,
0101
0000
0000
0012
0010
0100
0013
0000
0000
1100
0000
0000
,
1001
0101
1001
1010
1100
0110
0011
0000
0000
1001
0000
0000
,
1010
0000
0000
2100
0100
0100
3100
0000
0000
0010
0000
0000
,
1001
1100
1001
0011
0110
1100
0101
0000
0000
1001
0000
0000
,
1010
0000
0000
0210
0010
0010
0310
0000
0000
0011
0000
0000
,
0101
0000
0000
0010
0010
0100
0010
0000
0000
1100
0010
0100
,
0011
0000
0000
1001
0001
0100
0001
0000
0000
0011
0010
0010
,
1010
0000
0010
0100
1000
0000
1000
0100
0020
0000
0030
0010
0110
0000
1010
0000
,
1001
0000
0010
0010
0010
0000
0010
0010
0010
0000
0010
0010
0010
0010
0010
0010
,
0110
0000
0000
0000
;
